搜索

搜索结果:

搜索结果: 13

  1. similar as bitcount 32 and planes = 1

    https://software.intel.com/zh-cn/comment/1583036

    2005年1月21日 ... This_BIHXPelsPerMeter = 0 This_BIH.This_BIHYPelsPerMeter = 0 This_BIH. This_BIHClrUsed = 0. or is C3 the same as a 32 bits or a AC3 ?

  2. simple_player can't add video render

    https://software.intel.com/zh-cn/comment/1582298

    2009年6月8日 ... ... Info :-Video Type : MPEG2-Resolution : 720x480-Frame Rate : 29.97Audio Info :-Audio Type : AC3-S.Frequency : 48000-Num.Channel ...

  3. 搜索| 英特尔® 开发人员专区

    https://software.intel.com/zh-cn/search/gss/ac-3

    2016年11月15日... I'd estimate that roughly 1/3 of the time the encode hangs, and the rest of ... Stream #0:1[0x1100]: Audio: ac3 (AC-3 / 0x332D4341), 48000 Hz ...

  4. Android ffmpeg的x86编译和优化| 英特尔® 软件

    https://software.intel.com/zh-cn/articles/android-ffmpeg-x86

    2012年9月6日 ... FFmpeg支持MPEG、DivX、MPEG4、AC3、DV、FLV等40多种编码,AVI、MPEG、 OGG、Matroska、ASF等90多种解码.TCPMP, VLC, MPlayer等 ...

  5. OpenMP parallel loop incorrect iteration distribution?

    https://software.intel.com/zh-cn/forums/intel-fortran-compiler-for-linux-and-mac-os-x/topic/268347

    2006年2月21日 ... OMP END PARALLEL END $ uname -a Linux swan.ac3.com.au 2.4.21-sgi303r2 #1 SMP Mon Nov 29 15:29:38 PST 2004 ia64 i a64 ia64 ...

  6. Contact e-mail address needed for ijl11.dll - Vista Certification

    https://software.intel.com/zh-cn/forums/intel-integrated-performance-primitives/topic/304842

    2007年8月2日 ... -speech, audio and video codecs, including MPEG4:2, H.264, VC1, MP3, AC3, G. 729and others -computer vision sample which demostrates ...

  7. Media SDK decode error by Hardware

    https://software.intel.com/zh-cn/forums/intel-media-sdk/topic/311893

    2011年8月17日 ... Audio track must be MP3, AC3 or Vorbis (CBR/VBR). Unp. vop. Avi+mpeg4 with the packed vop hack stripped. So, do you meaned, the media ...

  8. QSV encode hangs early in transcode process

    https://software.intel.com/zh-cn/node/703241

    2016年11月15日 ... Stream #0:1[0x1100]: Audio: ac3 (AC-3 / 0x332D4341), 48000 Hz, stereo, fltp, 256 kb/s. Stream #0:2[0x1200]: Subtitle: hdmv_pgs_subtitle ...

  9. Integrated Performance Primitives samples

    https://software.intel.com/zh-cn/comment/1822567

    2015年4月23日 ... 31, -- [ aac_dec ] codec/audio/aac/dec. 32, -- [ ac3_dec ] codec/audio/ac3/dec. 33 , -- [ umc_video_dec_con ] application/umc_video_dec_con ...

  10. 您的位置

    https://software.intel.com/zh-cn/forums/intel-integrated-performance-primitives/topic/600157

    2015年11月11日 ... [ aac_common ] codec/audio/aac/common -- [ ac3_dec ] codec/audio/ac3/dec -- [ codec_common ] codec/common -- [ vm_plus ] core/vm_plus

  11. simple_player does not render in win7 on v7.0.1.046

    https://software.intel.com/zh-cn/forums/intel-integrated-performance-primitives/topic/286070

    2010年12月16日 ... -Audio Type : AC3. -S.Frequency : 48000. -Num.Channel : 2. -BitPerSample: 16. DecRate:102.99 fps(Dec 7.25ms/f + Conv 2.46ms/f = 9.71ms/f) ...

  12. 媒体

    https://software.intel.com/zh-cn/forums/intel-media-sdk?language=en&items_per_page=25&order=last_comment_timestamp&sort=asc

    正常话题, AC3 audio and WPF native please? 由ChicagoBob, 星期六, 2010-12- 18 08:03, 3, 发帖人Nina Kurina (Intel) 星期四, 2010-12-23 08:52. 正常话题 ...

  13. EPCM-505C-ESDC

    https://software.intel.com/sites/default/files/m/7/a/1/d/3/43104-EPCM-505C-Core_board_V1.0.pdf

    2012年3月31日 ... AC3. VSS#120. AC30. VSS#121. AC32. VSS#122. AC35. VSS#123. AC36. VSS #124. AC39. VSS#125. AC5. VSS#126. AC8. VSS#127. AD11.

有关编译器优化的更完整信息,请参阅优化通知